Фильмотека magnetida.ru (видеокаталог.рф)

  EXMO affiliate program  
 
На главную  Форум  Трекер  Анфейкер  Хаб Атлантида

   3D  (26)
   CamRip, TS  (247)
   OVA  (4)
   Азиатские фильмы  (79)
   Альтернативный перевод, озвучка  (17)
   Анимация  (579)
   Анимэ  (73)
   Биография  (136)
   Боевик  (1651)
   Вестерн  (64)
   Видео для КПК  (9)
   Военный  (312)
   Детектив  (700)
   Детский  (170)
   Документальный  (373)
   Драма  (2441)
   Индийские фильмы  (32)
   Исторический  (142)
   Караоке  (1)
   Клип  (145)
   Комедия  (2331)
   Комикс  (27)
   Концерты  (83)
   Короткометражный  (67)
   Криминал  (1039)
   Мелодрама  (856)
   Мистика  (94)
   Музыкальное видео  (142)
   Научно-популярные  (22)
   Обучающее  (50)
   Отечественный  (608)
   Правильный Перевод Гоблина  (44)
   Приключения  (1099)
   Семейный  (601)
   Сериал  (1315)
   Сказка  (12)
   Спектакль  (26)
   Спорт  (202)
   ТВ-шоу  (211)
   Трейлер  (163)
   Триллер  (1819)
   Ужасы  (806)
   Фантастика  (996)
   Фэнтези  (598)
   Эротика  (58)
   Прочее  (53)

Всего фильмов






Поиск фильма:


Популярные сериалы:
 1. Интерны (71)
 2. Мгновения грядущего / Вспомни, что будет / Flash Forward [1й сезон] (32)
 3. Порно для всей семьи / PG Porn (29)
 4. Универ (3 сезон) (24)
 5. Универ (4 сезон) (24)
 6. Реальные пацаны (22)
 7. Остаться в живых / Lost (Сезон 6) (22)
 8. Теория Большого Взрыва / The Big Bang Theory [3 Cезон] (21)
 9. Ходячие мертвецы / The Walking Dead (1 сезон) (21)
 10. Разум Фримена / Freemans Mind (21)


Не интересуетесь?

Перейти к фильму
На последнем берегу / On the Beach



Скоро в прокате:
Перейти к фильму
Падение Олимпа / Olympus Has Fallen

Перейти к фильму
Мрачные тени / Dark Shadows

Перейти к фильму
Хоббит: Неожиданное путешествие / The Hobbit: An Unexpected Journey [Трейлер]





Ведьмак / Wiedzmin



Рейтинг фильма:
-1/+4

Перейти к фильму

Полная информация на IMDB
Информация на IMDB

Фильм сюжетно связан с:

Михал Жебровский
• Пианист / The Pianist
• Старое предание. Когда солнце было богом / Stara basn. Kiedy slonce bylo bogiem
• Яношик: Правдивая история / Janosik. Prawdziwa historia

Даниэль Ольбрыхский
• Жестяной барабан / Die Blechtrommel
• Невыносимая легкость бытия / The Unbearable Lightness of Being, The
• Неуловимый / Anthony Zimmer
• Солт / Salt
• Солт / Salt
• Старое предание. Когда солнце было богом / Stara basn. Kiedy slonce bylo bogiem

Збигнев Замаховский
• Три цвета: Белый / Trzy kolory: Bialy

Год выпуска: 2002
Жанр: Сериал, Приключения, Фэнтези
Страна: Польша
Размер: 13382 МБ
Связанные персоналии: Анджей Сапковский, Михал Жебровский, Даниэль Ольбрыхский, Збигнев Замаховский, Marek Brodzki
Режиссёр: Marek Brodzki
Сценарий: Анджей Сапковский, Michal Szczerbic
Продюсер: -
В ролях: Михал Жебровский, Збигнев Замаховский, Марта Битнер, Грацина Вольшжак, Кинга Ильгнер, Мацей Козлов, Даниэль Ольбрых, Болеслав Абарт, В. Барански, Александр Беднаж, Марта Биттнер, Jaroslaw Boberek, Агата Бузек, Андзей Чира, Войцех Дурьяш
Рейтинг Кинопоиск или IMDB: 7.453
Скачиваний: 266
Дата добавления: 31.10.2012
Кто добавил: atlant_is

Описание фильма:


Качество: SATRip
Формат: AVI
Видео кодек: XviD 512x352 (1.45:1), 25 fps, XviD MPEG-4, 872 kbps avg, 0.19 bit/pixel
Аудио 1 (русский): Mp3 48 kHz, MPEG Layer 3, 2 ch, 160.00 kbps avg
Аудио 2 (польский): Mp3 44.100 kHz, MPEG Layer 3, 2 ch, 181.75 kbps avg
Премьера в мире: 22 сентября 2002
Продолжительность серии: ~0:50
Продолжительность сериала: ~ 10:18:00 (618 минут)


Качество: DVDRip
Формат: AVI
Видео кодек:
Формат : AVC
Формат/Информация : Advanced Video Codec
Профиль формата : High@L3.1
Параметр CABAC формата : Да
Параметр ReFrames формата : 11 кадров
Идентификатор кодека : V_MPEG4/ISO/AVC
Продолжительность : 53 м.
Битрейт : 1436 Кбит/сек
Ширина : 716 пикселей
Высота : 456 пикселей
Соотношение сторон : 1,673
Соотношение сторон в оригинале : 1,675
Режим частоты кадров : Постоянный
Частота кадров : 25,000 кадров/сек
Цветовое пространство : YUV
Субдискретизация насыщенности : 4:2:0
Битовая глубина : 8 бит
Тип развёртки : Прогрессивная
Бит/(Пиксели*Кадры) : 0.176
Размер потока : 544 Мбайт (77%)
Заголовок : Wiedzmin s01e01 [LonerD © DreamLair.net]
Библиотека кодирования : x264 core 114 r1913 5fd3dce
Настройки программы : cabac=1 / ref=11 / deblock=1:-2:-1 / analyse=0x3:0x133 / me=umh / subme=9 / psy=1 / psy_rd=1.20:0.20 / mixed_ref=1 / me_range=24 / chroma_me=1 / trellis=2 / 8x8dct=1 / cqm=0 / deadzone=21,11 / fast_pskip=1 / chroma_qp_offset=-3 / threads=12 / sliced_threads=0 / nr=0 / decimate=1 / interlaced=0 / constrained_intra=0 / bframes=8 / b_pyramid=2 / b_adapt=2 / b_bias=0 / direct=1 / weightb=1 / open_gop=0 / weightp=2 / keyint=250 / keyint_min=25 / scenecut=40 / intra_refresh=0 / rc=crf / mbtree=0 / crf=19.0 / qcomp=0.65 / qpmin=10 / qpmax=69 / qpstep=4 / ip_ratio=1.40 / pb_ratio=1.30 / aq=2:1.00
Язык : Polish
Default : Да
Forced : Нет

Аудио кодек:
Аудио #1
Идентификатор : 2
Формат : AC-3
Формат/Информация : Audio Coding 3
Расширение режима : CM (complete main)
Параметр Endianness формата : Big
Идентификатор кодека : A_AC3
Продолжительность : 53 м.
Вид битрейта : Постоянный
Битрейт : 192 Кбит/сек
Каналы : 2 канала
Расположение каналов : Front: L R
Частота : 48,0 КГц
Битовая глубина : 16 бит
Метод сжатия : С потерями
Размер потока : 72,8 Мбайт (10%)
Язык : Polish
Default : Да
Forced : Нет

Аудио #2
Идентификатор : 3
Формат : AC-3
Формат/Информация : Audio Coding 3
Расширение режима : CM (complete main)
Параметр Endianness формата : Big
Идентификатор кодека : A_AC3
Продолжительность : 53 м.
Вид битрейта : Постоянный
Битрейт : 192 Кбит/сек
Каналы : 2 канала
Расположение каналов : Front: L R
Частота : 48,0 КГц
Битовая глубина : 16 бит
Метод сжатия : С потерями
Размер потока : 72,8 Мбайт (10%)
Язык : Russian
Default : Нет
Forced : Нет

Премьера в мире: 22 сентября 2002
Продолжительность серии: ~0:50
Продолжительность сериала: ~ 10:18:00 (618 минут)


Информация о фильме:
Ведьмак (Wiedzmin) — польский минисериал, являющийся экранизацией романов Анджея Сапковского "Меч Предназначения" и "Последнее Желание", входящих в цикл "Ведьмак". В главной роли ведьмака Геральта снялся Михал Жебровский.
В незапамятные времена, когда по земле бродили великаны и гномы, а коварные драконы похищали прекрасных принцесс, бесстрашные ведьмаки, - маги и бойцы, - защищали мир от чудовищ, угрожавших людям. Среди них был и Геральт из Ривии, поклявшийся помогать всем кто оказался в беде, не вмешиваясь в мирские дела. Но человеческая жестокость вынудили его встать на сторону маленького королевства Цинтра, которое пало жертвой захватчиков. Теперь отважный Геральт должен обойти полсвета, чтобы разыскать похищенную королеву Цири, ибо только она может восстановить мир и порядок в родной Цинтре. Защищая правду и карая зло, отважный ведьмак тяжелым мечом и великой магией освободит родные земли от зла и вернет обитателям древних земель долгожданный мир и покой.
Телесериал "Ведьмак" (Wiedzmin) снят по одноименному литературному сериалу польского фантаста Анджея Сапковского, а в частности книг “Меч Предназначения” и “Последнее желание”.

Ещё до первого показа, сериал был выпущен в виде 130-минутного телефильма, представляющего собой сокращённую версию сериала.


Информация о раздаче:
1. В раздаче, в отличие от существовавших раздач (585 Минут), представлена полная версия сериала, - 618 Минут. Некоторые, купированые к показу по TV моменты, в этом релизе НЕ ПЕРЕВЕДЕНЫ. Но можно их посмотреть с русскими субтитрами (также см. ниже).
2. В каждой серии есть как русская звуковая дорожка, так и польская. Также имеются русские субтитры.
Смотреть этот сериал на польском с русскими титрами гораздо интереснее, так как играют актеры здорово и одно удовольствие слушать их голоса.

Информация о релизе:
Релиз собран на основе:
1. релиза FTP85 (звуковая дорожка: Kvaker; адаптация и монтаж: Slame; реставрация русского звука: denus)
2. русских субтитров Mungojerrie
3. польского SATRip"а (источников не знаю, скорее всего emule)
Список серий:


01. Dzjecjnstwo 01. Детство
02. Nauka Часть 02. Обучение
03. Czlowiek - Pierwsze Spotkanie 03. Человек - первая встреча
04. Smok 04. Дракон
05. Okruch Lodu 05. Осколок льда
06. Calanthe 06. Калантэ
07. Dolina Kwiatow 07. Долина цветов
08. Rozdroze 08. Перепутье
09. Swiatynia Melitele 09. Святилище Мелитэле
10. Mniejsze Zlo 10. Меньшее зло
11. Jaskier 11. Лютик
12. Falwick 12. Фальвик
13. Ciri 13. Цири


Скриншот фильма Скриншот фильма Скриншот фильма Скриншот фильма Скриншот фильма Скриншот фильма Скриншот фильма Скриншот фильма Скриншот фильма Скриншот фильма Скриншот фильма Скриншот фильма Скриншот фильма Скриншот фильма Скриншот фильма Скриншот фильма Скриншот фильма Скриншот фильма Скриншот фильма

Перейти к раздаче


   
Учтите, что скорость скачивания файлов напрямую зависит от наличия этих файлов на компьютерах пользователей! Чем распространённее этот файл, тем более высока скорость скачивания.

Знакомая личность?

Уэс Студи
Уэс Студи
(все фильмы)


Популярные фильмы:

Интерны
Интерны
(рейтинг: 71)


Район №9 / District 9
Район №9 / District 9
(рейтинг: 50)


Аватар / Avatar (HD)
Аватар / Avatar (HD)
(рейтинг: 36)


Аватар / Avatar
Аватар / Avatar
(рейтинг: 35)


Темный рыцарь / The Dark Knight (HD)
Темный рыцарь / The Dark Knight (HD)
(рейтинг: 33)



Популярные актеры:

Брюс Уиллис / Bruce Willis
Рейтинг: 87
Сэмюэл Л. Джексон
Рейтинг: 82
Роберт Де Ниро
Рейтинг: 77
Джерри Брукхаймер
Рейтинг: 77
Джонни Депп / Johnny Depp
Рейтинг: 77

В соответствии с ч.4 ГК РФ данный видеокаталог не содержит аудиовизуальные произведения (видеофайлы). Использование данного видеокаталог является бесплатной услугой и Администрация не несёт ответственность за качество и содержание каталога. Права на данные аудиовизуальные произведения принадлежат их законным правообладателям. Любое распространение и/или коммерческое использование без разрешения законных правообладателей запрещено. Все интересующиеся могут ознакомится с текстом ГК РФ Часть четвертая .
Страница генерировалась: 0.8 с. (запросов: 253) Ваш IP: 127.0.0.1