Фильмотека magnetida.ru (видеокаталог.рф)

  EXMO affiliate program  
 
На главную  Форум  Трекер  Анфейкер  Хаб Атлантида

   3D  (26)
   CamRip, TS  (247)
   OVA  (4)
   Азиатские фильмы  (79)
   Альтернативный перевод, озвучка  (17)
   Анимация  (579)
   Анимэ  (73)
   Биография  (136)
   Боевик  (1651)
   Вестерн  (64)
   Видео для КПК  (9)
   Военный  (312)
   Детектив  (700)
   Детский  (170)
   Документальный  (373)
   Драма  (2441)
   Индийские фильмы  (32)
   Исторический  (142)
   Караоке  (1)
   Клип  (145)
   Комедия  (2331)
   Комикс  (27)
   Концерты  (83)
   Короткометражный  (67)
   Криминал  (1039)
   Мелодрама  (856)
   Мистика  (94)
   Музыкальное видео  (142)
   Научно-популярные  (22)
   Обучающее  (50)
   Отечественный  (608)
   Правильный Перевод Гоблина  (44)
   Приключения  (1099)
   Семейный  (601)
   Сериал  (1315)
   Сказка  (12)
   Спектакль  (26)
   Спорт  (202)
   ТВ-шоу  (211)
   Трейлер  (163)
   Триллер  (1819)
   Ужасы  (806)
   Фантастика  (996)
   Фэнтези  (598)
   Эротика  (58)
   Прочее  (53)

Всего фильмов






Поиск фильма:


Популярные сериалы:
 1. Интерны (71)
 2. Мгновения грядущего / Вспомни, что будет / Flash Forward [1й сезон] (32)
 3. Порно для всей семьи / PG Porn (29)
 4. Универ (3 сезон) (24)
 5. Универ (4 сезон) (24)
 6. Реальные пацаны (22)
 7. Остаться в живых / Lost (Сезон 6) (22)
 8. Теория Большого Взрыва / The Big Bang Theory [3 Cезон] (21)
 9. Ходячие мертвецы / The Walking Dead (1 сезон) (21)
 10. Разум Фримена / Freemans Mind (21)


Не интересуетесь?

Перейти к фильму
Люди на колёсах / Wheelmen



Скоро в прокате:
Перейти к фильму
Падение Олимпа / Olympus Has Fallen

Перейти к фильму
Мрачные тени / Dark Shadows

Перейти к фильму
Хоббит: Неожиданное путешествие / The Hobbit: An Unexpected Journey [Трейлер]





Мегазаводы: Кока-Кола / Megafactories: Coca Cola



Рейтинг фильма:
-0/+1

Перейти к фильму


Год выпуска: 2010
Жанр: Документальный, Научно-популярные
Страна: США
Размер: 641 МБ
Режиссёр: National Geographic
Скачиваний: 33
Дата добавления: 09.01.2012
Кто добавил: NIKKO

Описание фильма:

Формат: HDTVRip, MKV, H.264, MP3
Видео: 1280x720 (16:9), 25.000 fps, AVC(х264), High@L3.0, ~ 1 800 Kbps, 0.078 bit/pixel
Аудио: 48 kHz, MPEG Layer 3, 2 ch, ~128.00 kbps avg
Перевод: Профессиональный (одноголосый), cубтитры: отсутствуют
Режиссер: National Geographic
Жанр: документальный
Продолжительность: 00:45:09
Год выпуска: 2010
Описание: 670 млрд. долларов - это годовой объем рынка безалкогольных напитков . Крупнейшим игроком на этом рынке является Coca-Cola Company , имеющая масштабное представительство по всему миру - они работают в 206 странах . Ежедневно на планете потребляется около 800 млн. бутылок и банок этого напитка . Компания заявляет , что их продукт доходит до 99% человечества . Узнайте о том, как же в действительности делается этот суперпопулярный американский напиток с засекреченным рецептом приготовления.
Mediainfo
General
Unique ID : 220730659383439954721630117666208759056 (0xA60F2DBC570B9157A41EC8ECCCF63D10)
Complete name : D:Документальное видеоmegafactories_coca_cola_[tfile.ru].mkv
Format : Matroska
Format version : Version 1
File size : 641 MiB
Duration : 45mn 8s
Overall bit rate : 1 984 Kbps
Encoded date : UTC 2011-12-29 14:10:29
Writing application : mkvmerge v2.4.0 ("Fumbling Towards Ecstasy") built on Oct 11 2008 20:13:15
Writing library : libebml v0.7.7 + libmatroska v0.8.1

Video
ID : 1
Format : AVC
Format/Info : Advanced Video Codec
Format profile : High@L3.0
Format settings, CABAC : No
Format settings, ReFrames : 1 frame
Codec ID : V_MPEG4/ISO/AVC
Duration : 45mn 8s
Bit rate : 1 800 Kbps
Width : 1 280 pixels
Height : 720 pixels
Display aspect ratio : 16:9
Frame rate : 25.000 fps
Color space : YUV
Chroma subsampling : 4:2:0
Bit depth : 8 bits
Scan type : Progressive
Bits/(Pixel*Frame) : 0.078
Stream size : 587 MiB (92%)
Writing library : x264 core 80 r1378+57 6f6b50a
Encoding settings : cabac=0 / ref=1 / deblock=1:0:0 / analyse=0x3:0x113 / me=hex / subme=7 / psy=1 / psy_rd=1.0:0.0 / mixed_ref=0 / me_range=16 / chroma_me=1 / trellis=0 / 8x8dct=1 / cqm=0 / deadzone=21,11 / fast_pskip=1 / chroma_qp_offset=-2 / threads=3 / sliced_threads=0 / nr=0 / decimate=1 / mbaff=0 / constrained_intra=0 / bframes=0 / wpredp=2 / keyint=250 / keyint_min=25 / scenecut=40 / rc_lookahead=40 / rc=abr / mbtree=1 / bitrate=1800 / ratetol=1.0 / qcomp=0.60 / qpmin=10 / qpmax=51 / qpstep=4 / ip_ratio=1.40 / aq=1:1.00
Default : Yes
Forced : No

Audio
ID : 2
Format : MPEG Audio
Format version : Version 1
Format profile : Layer 3
Mode : Joint stereo
Mode extension : MS Stereo
Codec ID : A_MPEG/L3
Codec ID/Hint : MP3
Duration : 45mn 8s
Bit rate mode : Constant
Bit rate : 128 Kbps
Channel(s) : 2 channels
Sampling rate : 48.0 KHz
Compression mode : Lossy
Stream size : 41.3 MiB (6%)
Default : Yes
Forced : No

Скриншот фильма Скриншот фильма Скриншот фильма Скриншот фильма

Перейти к раздаче


   
Учтите, что скорость скачивания файлов напрямую зависит от наличия этих файлов на компьютерах пользователей! Чем распространённее этот файл, тем более высока скорость скачивания.

Знакомая личность?

Сэм Ллойд
Сэм Ллойд
(все фильмы)


Популярные фильмы:

Интерны
Интерны
(рейтинг: 71)


Район №9 / District 9
Район №9 / District 9
(рейтинг: 50)


Аватар / Avatar (HD)
Аватар / Avatar (HD)
(рейтинг: 36)


Аватар / Avatar
Аватар / Avatar
(рейтинг: 35)


Темный рыцарь / The Dark Knight (HD)
Темный рыцарь / The Dark Knight (HD)
(рейтинг: 33)



Популярные актеры:

Брюс Уиллис / Bruce Willis
Рейтинг: 87
Сэмюэл Л. Джексон
Рейтинг: 82
Джерри Брукхаймер
Рейтинг: 77
Роберт Де Ниро
Рейтинг: 77
Джонни Депп / Johnny Depp
Рейтинг: 77

В соответствии с ч.4 ГК РФ данный видеокаталог не содержит аудиовизуальные произведения (видеофайлы). Использование данного видеокаталог является бесплатной услугой и Администрация не несёт ответственность за качество и содержание каталога. Права на данные аудиовизуальные произведения принадлежат их законным правообладателям. Любое распространение и/или коммерческое использование без разрешения законных правообладателей запрещено. Все интересующиеся могут ознакомится с текстом ГК РФ Часть четвертая .
Страница генерировалась: 0.7 с. (запросов: 117) Ваш IP: ::1