Главная страницаFAQСтол заказовНовости системыHOMENETПерсоналии (8773) • Пользователи (10584) • RSS • Техподдержка
    Раздач в наличии16377
    Раздач на модерации:7
    На сайте/гостей/макс. 0 /74/465
   
 

Error: Incorrect password!
Меню пользователя
Главная страница
Выключить снег
Правила ресурса
Правообладателям
Ресурсы клуба HomeNet
Частые вопросы (FAQ)
Боремся с фейками!
Гаджет для win7
Галерея портала
ДОБАВИТЬ ПЕРСОНАЛИЮ
ДОБАВИТЬ РАЗДАЧУ
Настройка P2P
Обзор раздач
Поддержать проект!
Скачать Flylink 4xx
Скачать Flylink 5xx
Скачать Flylink 5xx beta
Статистика хаба Атлантида
СТОЛ ЗАКАЗОВ
Форум
Видео (7611)
3D (26)
CamRip, TS (247)
OVA (4)
Азиатские фильмы (79)
Альтернативный перевод, озвучка (17)
Анимация (579)
Анимэ (73)
Биография (136)
Боевик (1651)
Вестерн (64)
Видео для КПК (9)
Военный (312)
Детектив (700)
Детский (170)
Документальный (373)
Драма (2441)
Индийские фильмы (32)
Исторический (142)
Караоке (1)
Клип (145)
Комедия (2331)
Комикс (27)
Концерты (83)
Короткометражный (67)
Криминал (1039)
Мелодрама (856)
Мистика (94)
Музыкальное видео (142)
Научно-популярные (22)
Обучающее (50)
Отечественный (608)
Правильный Перевод Гоблина (44)
Приключения (1099)
Семейный (601)
Сериал (1315)
Сказка (12)
Спектакль (26)
Спорт (202)
ТВ-шоу (211)
Трейлер (163)
Триллер (1819)
Ужасы (806)
Фантастика (996)
Фэнтези (598)
Эротика (58)
Прочее (53)
HD Видео (2580)
Игры (2374)
Музыка (2245)
Программы (652)
Рortable Soft (26)
Литература (438)
Обои для рабочего стола (319)
Mobile (37)
Прочее (95)
 
 
 

 
EXMO affiliate program
 

Видео

Гномео и Джульетта / Gnomeo & Juliet

добавлено: 05.04.2011 19:31:19
Кто добавил:

Aizek


Пользователь
Рейтинг: 21416
1
VIP пользователь
Гномео и Джульетта / Gnomeo & Juliet
Рейтинг Кинопоиск
Рейтинг:6.074 голосов: 24,230
Рейтинг IMDB
Рейтинг:5.9 голосов: 56,223
Рейтинг
  Рейтинг:10 голосов: 1  
Категория: Видео
Подкатегория: Анимация, Приключения, Семейный, Приключения, Фэнтези
Год выпуска: 2011
Страна: США, Великобритания
Режиссёр: Келли Эсбёри
Сценарий: Келли Эсбёри, Роб Спрэклинг, Марк Бертон
Продюсер: Келли Эсбёри, Роб Спрэклинг, Марк Бертон
В ролях: Джеймс МакЭвой, Эмили Блант, Эшли Дженсен, Майкл Кейн, Мэтт Лукас, Джим Каммингс, Мэгги Смит, Джейсон Стэтхэм, Оззи Осборн, Стефен Мерчант
Размер: 1398 МБ
Раздача связана с:
Гномео и Джульетта / Gnomeo & Juliet Гномео и Джульетта / Gnomeo & Juliet [HD Видео]



   
 


Описание:

Качество: DVDRip
Проолжительность: 1:14:24 мин
Перевод: дублированный
Формат файла: .avi (AVI)
Размер файла: 1,37 GB

 
Tип потока: Видео
Кодек: MPEG-4 Visual
Кодек/Профиль: Advanced Simple@L5
Кодек/ID: XVID
Размеры изображения: 720 x 384 (1.875)
Частота кадров: 23.976 fps
Размер потока: 1.06 GiB (77%)
Битрейт: 1 805 Kbps
Библиотека кодирования: XviD 58
 
Тип потока: Звук #1
Кодек: MPEG Audio
Кодек/ID: 55
Частота дискретизации: 48.0 KHz
Каналов: 2 channels
Битрейт: 128 Kbps
Размер потока: 76.5 MiB (5%)

 


Описание:
Интерпретация пьесы Уильяма Шекспира, в которой противоборствуют семьи садовых гномов и гномов домашних.



Гномео и Джульетта / Gnomeo & Juliet

Прочие скриншоты - показать


Комментарии:
Оставлять комментарии могут только зарегистрированые пользователи

 

Besucherzahler mail order russian
счетчик посещений









Лучшие пользователи
 1. 1 atlant_is (31309)
 2. 1 ivorytowery (320)
 3. 1 stonefreeline (316)
 4. 1 mokktewy (184)
 5. 1 bainuo (20)
 6. tancheng (8)
 7. businessm2 (0)
 8. bestblogsan (0)
 9. xioner (0)
 10. prothewor (0)
 11. etcasualarticl (0)
 12. darkpoema (0)
 13. dcointrad (0)
 14. Spartaque091 (0)
 15. Treo (-1)
 16. Denja555 (-2)
 17. uhzpjdtw2 (-8)
Лучшие модераторы
 1. DAVI (3303)
 2. NIKKO (1706)
 3. KOT (1037)
 4. Liquid (1016)
 5. Sleepwalker™ (757)
 6. Бердский (702)
 7. Yadro3000 (393)
 8. atlant_is (294)
 9. avl79 (47)
 10. Uncle_Go (21)
 
Популярное- Видео
 

 
Пользователи онлайн Вместе с гостями: 74
 Пользователи: никого нет
 Боты онлайн: YandexBot, Bingo
 
 
 
Программирование: "UserSide", "Atlant_is"
Дизайн: Atlant_is и "UserSide"
Система "Magneto" v.2.0.1
©2008-2010 - http://www.userside.org.ua/magneto/

Magnetida v.1.02b - 07.01.2012
Автор модуля: Atlant_is
Страница генерировалась: 1.2 с.