Главная страницаFAQСтол заказовНовости системыHOMENETПерсоналии (8773) • Пользователи (10302) • RSS • Техподдержка
    Раздач в наличии16377
    Раздач на модерации:0
    На сайте/гостей/макс. 1 /69/312
   
 

Меню пользователя
Главная страница
Выключить снег
Правила ресурса
Правообладателям
Ресурсы клуба HomeNet
Частые вопросы (FAQ)
Боремся с фейками!
Гаджет для win7
Галерея портала
ДОБАВИТЬ ПЕРСОНАЛИЮ
ДОБАВИТЬ РАЗДАЧУ
Настройка P2P
Обзор раздач
Поддержать проект!
Скачать Flylink 4xx
Скачать Flylink 5xx
Скачать Flylink 5xx beta
Статистика хаба Атлантида
СТОЛ ЗАКАЗОВ
Форум
Видео (7611)
HD Видео (2580)
Игры (2374)
Музыка (2245)
Alternative (107)
Blues (1)
Dance (108)
Death (9)
Disco (1)
Disco 80-х (15)
Drum & Bass (61)
Dubstep (12)
Electro (240)
Electro House (97)
Eurodance (3)
Folk (1)
Funk (39)
Hardcore (15)
Hardstyle (3)
Hip-Hop (288)
House (107)
Jazz (44)
Melodic Death Metal (9)
Metal (80)
Metalcore (5)
New Age (30)
Nu-Metal (10)
Pop (432)
Progressive (49)
Punk Rock (52)
Rap (288)
Relax (8)
RnB (31)
Rock (425)
Soul (1)
Trash (8)
Авторская песня (4)
Альтернатива (7)
Зарубежный поп (51)
Зарубежный рок (90)
Зарубежный рэп (73)
Инструментал (15)
Классика (11)
Музыка в losstless (37)
Ретро (6)
Русский поп (116)
Русский рок (115)
Русский рэп (218)
Саундтреки (OST) (144)
Сборники (VA) (112)
СКА (8)
Техно (56)
Транс (121)
Шансон (74)
Прочее (72)
Программы (652)
Рortable Soft (26)
Литература (438)
Обои для рабочего стола (319)
Mobile (37)
Прочее (95)
 
 
 

 
EXMO affiliate program
 

Музыка

Amazonika - Jump EP

добавлено: 10.12.2011 13:29:32
Кто добавил:

Sleepwalker™


Модератор
Рейтинг: 46022
22
VIP пользователь
Amazonika - Jump EP
Рейтинг
  Рейтинг:10 голосов: 1  
Категория: Музыка
Подкатегория: Progressive, House, Музыка в losstless
Год выпуска: 2011
Страна: Бразилия
Размер: 175 МБ


   
  Возможно вас заинтересует:
   Progressive Dorest 173 Progressive Dorest 173
   VA - Trance Season: Melody of Summer 4 VA - Trance Season: Melody of Summer 4

 


Описание:

Количество песен: 4
Форма: FLAC, (tracks+ .cue)
Формат/Информация: Free Lossless Audio Codec
Вид битрейта: Переменный
Битрейт: 796-867 Кбит/сек
Каналы: 2 канала
Частота: 44,1 КГц
Разрешение: 16 бит
Продолжительность: 29.20

Треклист:

01 Jump (Original Mix) - 7.10
02 Shined On Me (Original Mix) - 7.14
03 E-Bossa (Original Mix) - 7.15
Bonus:
04 Amazonika & Gux Jimenez - Floazzul (Original Mix) - 7.40

Отчет EAC

Exact Audio Copy V1.0 beta 3 from 29. August 2011

EAC extraction logfile from 10. October 2013, 17:48

Amazonika / Jump EP

Used drive : Optiarc DVD RW AD-5200A Adapter: 0 ID: 0

Read mode : Secure
Utilize accurate stream : Yes
Defeat audio cache : Yes
Make use of C2 pointers : No

Read offset correction : 48
Overread into Lead-In and Lead-Out : No
Fill up missing offset samples with silence : Yes
Delete leading and trailing silent blocks : No
Null samples used in CRC calculations : Yes
Used interface : Native Win32 interface for Win NT & 2000
Gap handling : Appended to previous track

Used output format : User Defined Encoder
Selected bitrate : 896 kBit/s
Quality : High
Add ID3 tag : No
Command line compressor : C:Program Files (x86)Exact Audio CopyFlacflac.exe
Additional command line options : -V -8 -T "Genre=%genre%" -T "Artist=%artist%" -T "Title=%title%" -T "Album=%albumtitle%" -T "Date=%year%" -T "Tracknumber=%tracknr%" -T "Comment=%comment%" %source%

TOC of the extracted CD

Track | Start | Length | Start sector | End sector
---------------------------------------------------------
1 | 0:00.00 | 7:12.19 | 0 | 32418
2 | 7:12.19 | 7:16.73 | 32419 | 65191
3 | 14:29.17 | 7:17.03 | 65192 | 97969
4 | 21:46.20 | 7:40.23 | 97970 | 132492

Track 1

Filename D:AmazonikaJump EP (2011)1. Jump [Original Mix].wav

Pre-gap length 0:00:02.00

Peak level 100.0 %
Extraction speed 2.6 X
Track quality 99.9 %
Test CRC 6A7E848D
Copy CRC 6A7E848D
Copy OK

Track 2

Filename D:AmazonikaJump EP (2011)2. Shined On Me [Original Mix].wav

Pre-gap length 0:00:02.00

Peak level 100.0 %
Extraction speed 3.3 X
Track quality 100.0 %
Test CRC 7934CAE4
Copy CRC 7934CAE4
Copy OK

Track 3

Filename D:AmazonikaJump EP (2011)3. E-Bossa [Original Mix].wav

Pre-gap length 0:00:02.00

Peak level 100.0 %
Extraction speed 3.6 X
Track quality 100.0 %
Test CRC E7947162
Copy CRC E7947162
Copy OK

Track 4

Filename D:AmazonikaJump EP (2011)4. Floazzul [Original Mix].wav

Pre-gap length 0:00:02.00

Peak level 100.0 %
Extraction speed 4.0 X
Track quality 100.0 %
Test CRC A8D8A36C
Copy CRC A8D8A36C
Copy OK

No errors occurred

End of status report

==== Log checksum 732386F250CB12E409536C62E598A256247E45EFC84F9BEBD587A253D80E7E01 ====




Комментарии:
Оставлять комментарии могут только зарегистрированые пользователи

 

Besucherzahler mail order russian
счетчик посещений









Лучшие пользователи
 1. 1 Liquid (223835)
 2. 1 Бердский (70113)
 3. 1 atlant_is (31298)
 4. Влесам (-1)
 5. Stek3 (-1)
Лучшие модераторы
 1. DAVI (3303)
 2. NIKKO (1706)
 3. KOT (1037)
 4. Liquid (1016)
 5. Sleepwalker™ (757)
 6. Бердский (702)
 7. Yadro3000 (393)
 8. atlant_is (294)
 9. avl79 (47)
 10. Uncle_Go (21)
 
Популярное- Музыка
 

 
Пользователи онлайн (1)Вместе с гостями: 70
 Пользователи: atlant_is VIP пользователь
 Боты онлайн: YandexBot, GoogleBot, Bingo
 
 
 
Программирование: "UserSide", "Atlant_is"
Дизайн: Atlant_is и "UserSide"
Система "Magneto" v.2.0.1
©2008-2010 - http://www.userside.org.ua/magneto/

Magnetida v.1.02b - 07.01.2012
Автор модуля: Atlant_is
Страница генерировалась: 0.3 с.