Главная страницаFAQСтол заказовНовости системыHOMENETПерсоналии (8773) • Пользователи (10303) • RSS • Техподдержка
    Раздач в наличии16377
    Раздач на модерации:0
    На сайте/гостей/макс. 1 /70/312
   
 

Меню пользователя
Главная страница
Выключить снег
Правила ресурса
Правообладателям
Ресурсы клуба HomeNet
Частые вопросы (FAQ)
Боремся с фейками!
Гаджет для win7
Галерея портала
ДОБАВИТЬ ПЕРСОНАЛИЮ
ДОБАВИТЬ РАЗДАЧУ
Настройка P2P
Обзор раздач
Поддержать проект!
Скачать Flylink 4xx
Скачать Flylink 5xx
Скачать Flylink 5xx beta
Статистика хаба Атлантида
СТОЛ ЗАКАЗОВ
Форум
Видео (7611)
HD Видео (2580)
3D (84)
OVA (0)
Азиатские фильмы (7)
Альтернативный перевод, озвучка (4)
Анимация (211)
Анимэ (60)
Биография (59)
Боевик (677)
Вестерн (32)
Видео для КПК (0)
Военный (77)
Детектив (240)
Детский (18)
Документальный (203)
Драма (745)
Индийские фильмы (0)
Исторический (50)
Караоке (0)
Клип (48)
Комедия (567)
Комикс (5)
Концерты (100)
Короткометражный (46)
Криминал (373)
Мелодрама (268)
Мистика (70)
Музыкальное видео (94)
Научно-популярные (8)
Обучающее (4)
Отечественный (59)
Правильный Перевод Гоблина (16)
Приключения (507)
Прочее (8)
Семейный (191)
Сериал (119)
Сказка (1)
Спектакль (0)
Спорт (58)
ТВ-передачи (23)
Трейлер (114)
Триллер (850)
Ужасы (221)
Фантастика (424)
Фэнтези (228)
Эротика (12)
Игры (2374)
Музыка (2245)
Программы (652)
Рortable Soft (26)
Литература (438)
Обои для рабочего стола (319)
Mobile (37)
Прочее (95)
 
 
 

 
EXMO affiliate program
 

HD Видео

Элементарно / Elementary (2 сезон)

добавлено: 08.10.2013 14:25:17
Кто добавил:

atlant_is


Администратор системы
Рейтинг: 31298
55555
VIP пользователь
Элементарно / Elementary (2 сезон)
Рейтинг
  Рейтинг:10 голосов: 1  
Категория: HD Видео
Подкатегория: Драма, Криминал, Детектив
Год выпуска: 2013
Страна: США
Режиссёр: Джон Полсон, Эндрю Бернштейн, Сет Манн
Сценарий: Роберт Доэрти, Крэйг Суини, Лиз Фридман
Продюсер: Крис Линца, Карл Беверли, Роберт Доэрти
В ролях: Джонни Ли Миллер, Люси Лью, Эйдан Куинн, Джон Майкл Хилл, Натали Дормер, Ато Эссонда, Линда Эмонд, Сьюзан Пурфар, Майкл Ден Деккер, Винни Джонс
Размер: 17933 МБ
Раздача связана с:
Элементарно / Elementary (2 сезон) Элементарно / Elementary [Видео]
Элементарно / Elementary (2 сезон) Элементарно / Elementary (1 сезон)



   
 


Описание:

Качество: 720p
Видео кодек:

Format : Matroska
Format version : Version 2
File size : 1.46 GiB
Duration : 43mn 26s
Overall bit rate : 4 810 Kbps
Encoded date : UTC 2013-10-07 13:04:27
Writing application : mkvmerge v4.2.0 ("No Talking") сборка от Jul 28 2010 18:38:23
Writing library : libebml v1.0.0 + libmatroska v1.0.0

Video
ID : 1
Format : AVC
Format/Info : Advanced Video Codec
Format profile : High@L3.1
Format settings, CABAC : Yes
Format settings, ReFrames : 4 frames
Codec ID : V_MPEG4/ISO/AVC
Duration : 43mn 26s
Bit rate : 4 041 Kbps
Width : 1 280 pixels
Height : 720 pixels
Display aspect ratio : 16:9
Frame rate mode : Constant
Frame rate : 23.976 fps
Color space : YUV
Chroma subsampling : 4:2:0
Bit depth : 8 bits
Scan type : Progressive
Bits/(Pixel*Frame) : 0.183
Stream size : 1.20 GiB (82%)
Writing library : x264 core 112 r1834

Аудио кодек:
Audio #1
ID : 2
Format : AC-3
Format/Info : Audio Coding 3
Mode extension : CM (complete main)
Format settings, Endianness : Big
Codec ID : A_AC3
Duration : 43mn 26s
Bit rate mode : Constant
Bit rate : 384 Kbps
Channel(s) : 2 channels
Channel positions : Front: L R
Sampling rate : 48.0 KHz
Bit depth : 16 bits
Compression mode : Lossy
Stream size : 119 MiB (8%)
Default : Yes
Forced : No

Audio #2
ID : 3
Format : AC-3
Format/Info : Audio Coding 3
Mode extension : CM (complete main)
Format settings, Endianness : Big
Codec ID : A_AC3
Duration : 43mn 26s
Bit rate mode : Constant
Bit rate : 384 Kbps
Channel(s) : 2 channels
Channel positions : Front: L R
Sampling rate : 48.0 KHz
Bit depth : 16 bits
Compression mode : Lossy
Stream size : 119 MiB (8%)
Default : No
Forced : No

Жанр: драма, криминал, детектив, слова
Перевод: Закадровый
Премьера в мире: 27 сентября 2012,
Премьера в РФ: 14 октября 2012
Продолжительность: 43 мин.


Информация о фильме:
Британский сыщик Шерлок Холмс  бывший наркоман, который был отправлен в Нью-Йорк на лечение в реабилитационный центр, а по завершении лечения остался в Бруклине как консультант Нью-Йоркской полиции. В расследованиях ему помогает его компаньон-наблюдатель доктор Джоан Ватсон, нанятая его отцом.


Взято с kinopoisk.ru


Элементарно / Elementary (2 сезон)

Прочие скриншоты - показать


Комментарии:
Оставлять комментарии могут только зарегистрированые пользователи

 

Besucherzahler mail order russian
счетчик посещений









Лучшие пользователи
 1. 1 Liquid (223835)
 2. 1 Бердский (70113)
 3. 1 atlant_is (31298)
 4. Dmytro Gt (-1)
 5. Влесам (-1)
 6. Stek3 (-1)
Лучшие модераторы
 1. DAVI (3303)
 2. NIKKO (1706)
 3. KOT (1037)
 4. Liquid (1016)
 5. Sleepwalker™ (757)
 6. Бердский (702)
 7. Yadro3000 (393)
 8. atlant_is (294)
 9. avl79 (47)
 10. Uncle_Go (21)
 
Популярное- HD Видео
 

 
Пользователи онлайн (1)Вместе с гостями: 71
 Пользователи: atlant_is VIP пользователь
 Боты онлайн: Bingo
 
 
 
Программирование: "UserSide", "Atlant_is"
Дизайн: Atlant_is и "UserSide"
Система "Magneto" v.2.0.1
©2008-2010 - http://www.userside.org.ua/magneto/

Magnetida v.1.02b - 07.01.2012
Автор модуля: Atlant_is
Страница генерировалась: 0.5 с.