Фильмотека magnetida.ru (видеокаталог.рф)

  EXMO affiliate program  
 
На главную  Форум  Трекер  Анфейкер  Хаб Атлантида

   3D  (26)
   CamRip, TS  (247)
   OVA  (4)
   Азиатские фильмы  (79)
   Альтернативный перевод, озвучка  (17)
   Анимация  (579)
   Анимэ  (73)
   Биография  (136)
   Боевик  (1651)
   Вестерн  (64)
   Видео для КПК  (9)
   Военный  (312)
   Детектив  (700)
   Детский  (170)
   Документальный  (373)
   Драма  (2441)
   Индийские фильмы  (32)
   Исторический  (142)
   Караоке  (1)
   Клип  (145)
   Комедия  (2331)
   Комикс  (27)
   Концерты  (83)
   Короткометражный  (67)
   Криминал  (1039)
   Мелодрама  (856)
   Мистика  (94)
   Музыкальное видео  (142)
   Научно-популярные  (22)
   Обучающее  (50)
   Отечественный  (608)
   Правильный Перевод Гоблина  (44)
   Приключения  (1099)
   Семейный  (601)
   Сериал  (1315)
   Сказка  (12)
   Спектакль  (26)
   Спорт  (202)
   ТВ-шоу  (211)
   Трейлер  (163)
   Триллер  (1819)
   Ужасы  (806)
   Фантастика  (996)
   Фэнтези  (598)
   Эротика  (58)
   Прочее  (53)

Всего фильмов






Поиск фильма:


Популярные сериалы:
 1. Интерны (71)
 2. Мгновения грядущего / Вспомни, что будет / Flash Forward [1й сезон] (32)
 3. Порно для всей семьи / PG Porn (29)
 4. Универ (3 сезон) (24)
 5. Универ (4 сезон) (24)
 6. Реальные пацаны (22)
 7. Остаться в живых / Lost (Сезон 6) (22)
 8. Теория Большого Взрыва / The Big Bang Theory [3 Cезон] (21)
 9. Ходячие мертвецы / The Walking Dead (1 сезон) (21)
 10. Разум Фримена / Freemans Mind (21)


Не интересуетесь?

Перейти к фильму
Убить любой ценой / Overkill



Скоро в прокате:
Перейти к фильму
Падение Олимпа / Olympus Has Fallen

Перейти к фильму
Мрачные тени / Dark Shadows

Перейти к фильму
Хоббит: Неожиданное путешествие / The Hobbit: An Unexpected Journey [Трейлер]





Вестерн


Страница  
<<  1, 2, 3, 4, 5, 6, 7, 8, 9, 10  >>
Зомби на Диком Западе / Undead or Alive: A Zombedy - 2007 (, ,)

Зомби на Диком Западе / Undead or Alive: A Zombedy

Качество: DVDRip
Видео кодек: XviD, 1615 Кбит/с, 720x304
Аудио кодек: АС3, 6 ch, 384 Кбит/с 48 kHz
Жанр: ужасы, комедия, вестерн,
Перевод: Профессиональный двухголосый
Рейтинг mpaa: R - Лицам до 17 лет обязательно присутствие взрослого
Продолжительность: 93 мин.


Информация о фильме:
Два неудачника, солдат-дезертир Элмер Уинслоу и горе-ковбой Люк Бадд, умудряются ограбить мерзавца-шерифа в маленьком городке где-то на Диком Западе. Спасаясь от головорезов, посланных по их следу, они и не подозревают, что Джеронимо уже проклял «белого человека», чума зомби охватывает всю страну и, что теперь только супер-секси племянница Великого Вождя их единственная надежда на выживание


Подробнее

Кто добавил: zarik - 25.05.2011
Дебора Дел Прете Джеймс Дентон

Железная хватка / True Grit - 2010 (, , ,)

Железная хватка / True Grit

Качество: DVDScreener
Видео кодек: 720x304 (2.37:1), 23.976 fps, XviD MPEG-4 ~1560 kbps avg, 0.30 bit/pixel
Аудио кодек: 48 kHz, AC3 Dolby Digital, 2/0 (L,R) ch, ~192 kbps
Перевод: Любительский (одноголосый) Kerob



Качество: DVDScreener
Видео кодек: 720x304 (2.37:1), 23.976 fps, XviD MPEG-4 ~ 1560 kbps avg, 0.30 bit/pixel
Аудио кодек: 48 kHz, AC3 Dolby Digital, 2/0 (L,R) ch, 192.00 kbps avg
Перевод: Профессиональный закадровый (двухголосый) OZZ.TV


Качество: HDRip
Видео кодек: XviD, 720x304, 2003 kb/s
Аудио кодек: AC3, Audio1: Russian (MVO): AC3, 448 kb/s (6 ch)
Audio2: Russian (Dub): AC3, 192 kb/s (2 ch)
Перевод: Профессиональное (многоголосое, OzzTV) + Дублированное [звук с CAMRip]


Жанр: драма, приключения, вестерн.
Рейтинг mpaa: PG-13 - Детям до 13 лет просмотр не желателен
Продолжительнос...

Подробнее

Кто добавил: $@m - 25.05.2011
Итэн Коэн Джоэл Коэн Джефф Бриджес Мэтт Дэймон Джош Бролин

Танцующий с волками / Dances with Wolves - 1990 (, ,)

Танцующий с волками / Dances with Wolves


Качество: dvdrip
Видео кодек: Xvid 720x304 23.98fps
Аудио кодек: Dolby AC3 48000Hz 6ch 384kbps
Перевод: проф.закадровый

Качество: dvdrip
Видео кодек: Xvid 608x272 25.00fps
Аудио кодек: MPEG Audio Layer 3 48000Hz stereo 124kbps
Перевод: проф.закадровый



Жанр: драма, приключения, вестерн,
Премьера в мире: 19 октября 1990
Рейтинг mpaa: PG-13 - Детям до 13 лет просмотр не желателен
Продолжительность: 236 мин.


Информация о фильме:
Действие фильма происходит в 19-м веке, во время гражданской войны в США. Данбар оказывается в заброшенном форте в штате Дакота, где сначала заводит дружбу с волками, а затем и с индейцами, изучает их культуру и обычаи. Он влюбляется в девушку, правда, белую. Но вот приближается регулярная армия, и Данбару приходится делать решающий выбор.


...

Подробнее

Кто добавил: DAVI - 02.05.2011
Кевин Костнер Майкл Блейк (Base picture not found) Мэри МакДоннел Роберт Пасторелли Чарльз Роккет

Счастливчик Люк / Lucky Luke - 2009 (, ,)

Счастливчик Люк / Lucky Luke

Качество: DVDRip
Перевод: одногоосый
Продолжительность:103 мин.
Формат файла: .avi (AVI)
Размер файла: 1,37 GB

 Видео:
Кодек: MPEG-4 Visual
Кодек/Профиль: Advanced Simple@L5
Кодек/ID: XVID
Размеры изображения: 720 x 304 (2.35:1)
Частота кадров: 25.000 fps
Размер потока: 1.05 GiB (77%)
Битрейт: 1 517 Kbps
Библиотека кодирования: XviD 1.2.1 (UTC 2008-12-04)
 
Аудио:
Кодек: AC-3
Кодек/ID: 2000
Частота дискретизации: 48.0 KHz
Каналов: 6 channels
Битрейт: 448 Kbps


Информация о фильме:
Счастливчик Люк возвращается в свой родной город Дэйзи Таун, где в то время хозяйничают злодеи Пат Покер и Билли Зи Ки. Там он встретит свою любовь, певицу из местной таверны по имени Белль, а...

Подробнее

Кто добавил: Aizek - 26.04.2011
Моррис Честнат Жан Дюжарден / Jean Dujardin Мельвиль Пупо

[HD] Последний изгой / Last Outlaw, The [HD] - 1993 (,)

Последний изгой / Last Outlaw, The [HD]


Качество: HDTVrip 1080i
Видео кодек: MPEG2 Video 1920x1080 29.97fps 20000kbps
Аудио кодек: Dolby AC3 48000Hz 6ch 448kbps
Перевод: проф.закадровый / 3 одноголосных

Качество: HDTVrip 720p
Видео кодек: MPEG4 Video (H264) 1280x704 23.98fps
Аудио кодек: Dolby AC3 48000Hz 6ch 448kbps
Перевод: проф.закадровый

Жанр: вестерн,
Рейтинг mpaa: R - Лицам до 17 лет обязательно присутствие взрослого
Продолжительность: 93 мин.


Информация о фильме:
Они шли по одной дороге жизни, и проходя, оставляли кровь убитых и разорение. Они грабили безжалостно, и улыбались, когда смерть смотрела им в глаза. Они были больше, чем братья, готовые принять пулю друг за друга. Но случай сделал их врагами. И кто-то один должен был остаться в живых.


Взято с kinop...

Подробнее

Кто добавил: DAVI - 07.04.2011
Джон Дэвис Микки Рурк Дермот Малруни Тед Левайн Джон К. МакГинли

Путь воина / Warriors Way, The - 2010 (, ,)

Путь воина / Warriors Way, The


Качество: HDrip
Видео кодек: Xvid 720x304 23.98fps
Аудио кодек: Dolby AC3 48000Hz 6ch 384kbps
Жанр: фэнтези, боевик, вестерн,
Перевод: дубляж [лицензия]
Премьера в мире: 2 декабря 2010
Премьера в РФ: 2 декабря 2010, «Парадиз»
Рейтинг mpaa: R - Лицам до 17 лет обязательно присутствие взрослого
Продолжительность: 100 мин.



От продюсера "Матрицы" и трилогии "Властелин колец".


Информация о фильме:
Великий воин Янг  живая легенда, рожденная на поле боя. Он был так силен, что ни одна армия не могла его победить.Однажды, уничтожая врагов своего клана, самурай отказался убить маленькую девочку, за что его ждет смертный приговор. С младенцем на руках он бежит в Новый Свет, в Америку и находит убежище в захолустном городке, жители которого живут в постоянном страхе перед бандой безжалостного Полко...

Подробнее

Кто добавил: DAVI - 06.04.2011
Барри М. Осборн Чан Дон Ган Кейт Босворт Джеффри Раш Дэнни Хьюстон

Ранго / Rango - 2011 (, , , ,)

Ранго / Rango

alt
1 сылка :
Страна: США
Продолжительность: 01:40:39
Перевод: ДУБЛЯЖ

Файл
Кодек: XviD
Качество: CAMRip
Формат файла: .avi (AVI)
Размер файла: 1,23 GB

Видео:
Длительность: 01:36:34
Кодек: MPEG-4 Visual
Кодек/Профиль: Advanced Simple@L5
Кодек/ID: XVID
Размеры изображения: 688 x 384 (16:9)
Частота кадров: 25.000 fps
Размер потока: 1.09 GiB (89%)
Битрейт: 1 621 Kbps
Библиотека кодирования: XviD 1.2.1 (UTC 2008-12-04)

Подробнее

Кто добавил: Aizek - 30.03.2011
Гор Вербински Джон Логан Джонни Депп / Johnny Depp Айла Фишер Эбигейл Бреслин

Голод / Donner Party, The - 2009 (, ,)

Голод / Donner Party, The

Качество: DVDrip
Видео кодек: AVI (XviD)720x304, 1852 kbps
Аудио кодек: AC3, 6ch, 448 kbps
Жанр: драма, вестерн,
Перевод: Профессиональный (многоголосый) [Лицензия]
Рейтинг mpaa: R - Лицам до 17 лет обязательно присутствие взрослого
Продолжительность: 01:24:44 мин.


Информация о фильме:
В 1840-х группа эмигрантов начинает опасный путь на Запад в Калифорнию. Когда зимой метель сковывает горы Сьерра-Невада льдом, поселенцы сбиваются с курса и вскоре оказываются в ловушке, замерзшие и голодные. Угроза неминуемой смерти убивает дух товарищества, и скоро безумие голода овладевает людьми


Подробнее

Кто добавил: SERjO - 25.02.2011
Криспин Гловер Клейн Кроуфорд Марк Бун Джуниор Катрин Блэк Криспиан Белфрадж

Стрелок / Triggerman (2010) - 2010 ()

Стрелок / Triggerman (2010)

Качество: DVDRip
Видео кодек:640*352 (1.82), 23.976 fps, XviD MPEG-4, ~829 kbps, 0.16 bit/pixel
Аудио кодек: 44.1 kHz, MPEG Layer 3, 2 ch, ~224 kbps
Жанр: вестерн
Перевод:Авторский (одноголосый) Доцент
Рейтинг mpaa: PG - Рекомендуется присутствие родителей
Продолжительность:1:37:22 мин.


Информация о фильме:Продолжение приключений Дока Веста в городке Холлисэнд.



Подробнее

Кто добавил: SERjO - 10.02.2011
Орнелла Мути

[HD] Ковбои против Пришельцев / Cowboys & Aliens - 2011 (, , , ,)

Ковбои против Пришельцев / Cowboys & Aliens

Качество: HD
Видео кодек: 1920x816, 8062 Кбит/сек, 25.000 кадр/сек, AVC, QuickTime, 16:9, 0.206 Бит/(Пиксели*Кадры)
Аудио кодек: AAC, 320 Кбит/сек, 2 канала(ов), 48,0 КГц
Жанр: фантастика, боевик, триллер, вестерн,
Перевод: Профессиональный (многоголосый)
Продолжительность: - 00:02:37


Информация о фильме:
1873, Абсолюшен, штат Аризона. В эту глухую американскую провинцию прибывает потерявший память незнакомец. Единственный намек на его прошлое  это странные кандалы на одном из его запястий. Странник быстро узнает, что жители городка не рады незнакомцам, да и вообще они выходят на улицы лишь по приказу полковника Долархайда, правящего в этой местности железной рукой.Вскоре странное поведение жителей объясняется. Периодически с неба обрушиваются ужасающие создания, которые забирают все, что им заблагорассудится и держат город в паническом страхе. Главный герой, постепенно вспоминающий о том, чт...

Подробнее

Кто добавил: radoss - 16.01.2011
Джон Фавро Роберто Орси Алекс Куртцман Дэймон Линделоф Дэниэл Крэйг

Страница  
<<  1, 2, 3, 4, 5, 6, 7, 8, 9, 10  >>
Знакомая личность?

Кэмерон Ричардсон
Кэмерон Ричардсон
(все фильмы)


Популярные фильмы:

Интерны
Интерны
(рейтинг: 71)


Район №9 / District 9
Район №9 / District 9
(рейтинг: 50)


Аватар / Avatar (HD)
Аватар / Avatar (HD)
(рейтинг: 36)


Аватар / Avatar
Аватар / Avatar
(рейтинг: 35)


Темный рыцарь / The Dark Knight (HD)
Темный рыцарь / The Dark Knight (HD)
(рейтинг: 33)



Популярные актеры:

Брюс Уиллис / Bruce Willis
Рейтинг: 87
Сэмюэл Л. Джексон
Рейтинг: 82
Роберт Де Ниро
Рейтинг: 77
Джерри Брукхаймер
Рейтинг: 77
Джонни Депп / Johnny Depp
Рейтинг: 77

В соответствии с ч.4 ГК РФ данный видеокаталог не содержит аудиовизуальные произведения (видеофайлы). Использование данного видеокаталог является бесплатной услугой и Администрация не несёт ответственность за качество и содержание каталога. Права на данные аудиовизуальные произведения принадлежат их законным правообладателям. Любое распространение и/или коммерческое использование без разрешения законных правообладателей запрещено. Все интересующиеся могут ознакомится с текстом ГК РФ Часть четвертая .
Страница генерировалась: 0.7 с. (запросов: 171) Ваш IP: ::1