Фильмотека magnetida.ru (видеокаталог.рф)

  EXMO affiliate program  
 
На главную  Форум  Трекер  Анфейкер  Хаб Атлантида

   3D  (26)
   CamRip, TS  (247)
   OVA  (4)
   Азиатские фильмы  (79)
   Альтернативный перевод, озвучка  (17)
   Анимация  (579)
   Анимэ  (73)
   Биография  (136)
   Боевик  (1651)
   Вестерн  (64)
   Видео для КПК  (9)
   Военный  (312)
   Детектив  (700)
   Детский  (170)
   Документальный  (373)
   Драма  (2441)
   Индийские фильмы  (32)
   Исторический  (142)
   Караоке  (1)
   Клип  (145)
   Комедия  (2331)
   Комикс  (27)
   Концерты  (83)
   Короткометражный  (67)
   Криминал  (1039)
   Мелодрама  (856)
   Мистика  (94)
   Музыкальное видео  (142)
   Научно-популярные  (22)
   Обучающее  (50)
   Отечественный  (608)
   Правильный Перевод Гоблина  (44)
   Приключения  (1099)
   Семейный  (601)
   Сериал  (1315)
   Сказка  (12)
   Спектакль  (26)
   Спорт  (202)
   ТВ-шоу  (211)
   Трейлер  (163)
   Триллер  (1819)
   Ужасы  (806)
   Фантастика  (996)
   Фэнтези  (598)
   Эротика  (58)
   Прочее  (53)

Всего фильмов






Поиск фильма:


Популярные сериалы:
 1. Интерны (71)
 2. Мгновения грядущего / Вспомни, что будет / Flash Forward [1й сезон] (32)
 3. Порно для всей семьи / PG Porn (29)
 4. Универ (3 сезон) (24)
 5. Универ (4 сезон) (24)
 6. Реальные пацаны (22)
 7. Остаться в живых / Lost (Сезон 6) (22)
 8. Теория Большого Взрыва / The Big Bang Theory [3 Cезон] (21)
 9. Ходячие мертвецы / The Walking Dead (1 сезон) (21)
 10. Разум Фримена / Freemans Mind (21)


Не интересуетесь?

Перейти к фильму
Видео энциклопедия секса [3 из 3]



Скоро в прокате:
Перейти к фильму
Падение Олимпа / Olympus Has Fallen

Перейти к фильму
Мрачные тени / Dark Shadows

Перейти к фильму
Хоббит: Неожиданное путешествие / The Hobbit: An Unexpected Journey [Трейлер]





Пробуждающий лес / Wake Wood



Рейтинг фильма:
-0/+2

Перейти к фильму

Полная информация на IMDB
Информация на IMDB


Тимоти Сполл
• Ванильное небо / Vanilla Sky
• Гарри Поттер и кубок огня / Harry Potter and the Goblet of Fire
• Интим / Intimacy
• Квадрофения / Quadrophenia
• Побег из курятника / Chicken Run
• Последний самурай / The Last Samurai
• Рок-звезда / Rock Star
• Смертельный номер / Death Defying Acts

Год выпуска: 2011
Жанр: Ужасы, Триллер, Драма
Страна: Великобритания, Ирландия
Размер: 963 МБ
Связанные персоналии: Тимоти Сполл
Режиссёр: Дэвид Китинг
Сценарий: Дэвид Китинг, Брендан МакКарти
Продюсер: Брендан МакКарти, Джон МакДоннел, Наташа Банке
В ролях: Амелия Краули, Briain Gleeson, Дэн Гордон, Тимоти Сполл , Рут МакКейб, Эва Бертистл, Эйдан Джиллен, Элла Коннолли
Скачиваний: 105
Дата добавления: 09.04.2011
Кто добавил: Aizek

Описание фильма:

Дата выхода в России (или в Мире): 25.03.2011
Продолжительность: 01:26:00 мин
Перевод: любительский(одноголосый)

Качество:DVDrip
Формат файла: .mkv (Matroska)
Размер файла: 962,76 MB

 
Видео:
Кодек: MPEG-4 Visual
Кодек/Профиль: Advanced Simple@L5
Кодек/ID: XVID
Размеры изображения: 640 x 352 (16:9)
Частота кадров: 25.000 fps
Размер потока: 591 MiB (85%)
Битрейт: 954 Kbps
Библиотека кодирования: XviD 1.2.1 (UTC 2008-12-04)
 
Аудио:
Кодек: MPEG Audio
Кодек/ID: A_MPEG/L3
Частота дискретизации: 48.0 KHz
Каналов: 2 channels
Битрейт: 144 Kbps
Размер потока: 86.4 MiB (12%)
 Тип потока: субтитры #1

Описание:
Родителям девочки, которая была убита дикой собакой, предоставляется возможность провести три дня с их умершей дочери.



Скриншот фильма Скриншот фильма Скриншот фильма Скриншот фильма Скриншот фильма

Перейти к раздаче


   
Учтите, что скорость скачивания файлов напрямую зависит от наличия этих файлов на компьютерах пользователей! Чем распространённее этот файл, тем более высока скорость скачивания.

Знакомая личность?

Стив Джон Кэрелл
Стив Джон Кэрелл
(все фильмы)


Популярные фильмы:

Интерны
Интерны
(рейтинг: 71)


Район №9 / District 9
Район №9 / District 9
(рейтинг: 50)


Аватар / Avatar (HD)
Аватар / Avatar (HD)
(рейтинг: 36)


Аватар / Avatar
Аватар / Avatar
(рейтинг: 35)


Темный рыцарь / The Dark Knight (HD)
Темный рыцарь / The Dark Knight (HD)
(рейтинг: 33)



Популярные актеры:

Брюс Уиллис / Bruce Willis
Рейтинг: 87
Сэмюэл Л. Джексон
Рейтинг: 82
Джерри Брукхаймер
Рейтинг: 77
Джонни Депп / Johnny Depp
Рейтинг: 77
Роберт Де Ниро
Рейтинг: 77

В соответствии с ч.4 ГК РФ данный видеокаталог не содержит аудиовизуальные произведения (видеофайлы). Использование данного видеокаталог является бесплатной услугой и Администрация не несёт ответственность за качество и содержание каталога. Права на данные аудиовизуальные произведения принадлежат их законным правообладателям. Любое распространение и/или коммерческое использование без разрешения законных правообладателей запрещено. Все интересующиеся могут ознакомится с текстом ГК РФ Часть четвертая .
Страница генерировалась: 0.7 с. (запросов: 135) Ваш IP: 127.0.0.1