Фильмотека magnetida.ru (видеокаталог.рф)

  EXMO affiliate program  
 
На главную  Форум  Трекер  Анфейкер  Хаб Атлантида

   3D  (26)
   CamRip, TS  (247)
   OVA  (4)
   Азиатские фильмы  (79)
   Альтернативный перевод, озвучка  (17)
   Анимация  (579)
   Анимэ  (73)
   Биография  (136)
   Боевик  (1651)
   Вестерн  (64)
   Видео для КПК  (9)
   Военный  (312)
   Детектив  (700)
   Детский  (170)
   Документальный  (373)
   Драма  (2441)
   Индийские фильмы  (32)
   Исторический  (142)
   Караоке  (1)
   Клип  (145)
   Комедия  (2331)
   Комикс  (27)
   Концерты  (83)
   Короткометражный  (67)
   Криминал  (1039)
   Мелодрама  (856)
   Мистика  (94)
   Музыкальное видео  (142)
   Научно-популярные  (22)
   Обучающее  (50)
   Отечественный  (608)
   Правильный Перевод Гоблина  (44)
   Приключения  (1099)
   Семейный  (601)
   Сериал  (1315)
   Сказка  (12)
   Спектакль  (26)
   Спорт  (202)
   ТВ-шоу  (211)
   Трейлер  (163)
   Триллер  (1819)
   Ужасы  (806)
   Фантастика  (996)
   Фэнтези  (598)
   Эротика  (58)
   Прочее  (53)

Всего фильмов






Поиск фильма:


Популярные сериалы:
 1. Интерны (71)
 2. Мгновения грядущего / Вспомни, что будет / Flash Forward [1й сезон] (32)
 3. Порно для всей семьи / PG Porn (29)
 4. Универ (3 сезон) (24)
 5. Универ (4 сезон) (24)
 6. Реальные пацаны (22)
 7. Остаться в живых / Lost (Сезон 6) (22)
 8. Теория Большого Взрыва / The Big Bang Theory [3 Cезон] (21)
 9. Ходячие мертвецы / The Walking Dead (1 сезон) (21)
 10. Разум Фримена / Freemans Mind (21)


Не интересуетесь?

Перейти к фильму
Выстрел в голову / Убийства / Headshot



Скоро в прокате:
Перейти к фильму
Падение Олимпа / Olympus Has Fallen

Перейти к фильму
Мрачные тени / Dark Shadows

Перейти к фильму
Хоббит: Неожиданное путешествие / The Hobbit: An Unexpected Journey [Трейлер]





Ханна. Совершенное оружие / Hanna



Рейтинг фильма:
-0/+0

Перейти к фильму

Полная информация на IMDB
Информация на IMDB

Фильм сюжетно связан с:
• Ханна. Совершенное оружие / Hanna

Сирша Ронан
• Византия / Byzantium
• Виолет и Дейзи / Violet & Daisy
• Гостья / The Host
• Милые кости / The Lovely Bones
• Милые кости / The Lovely Bones
• Путь домой / The Way Back
• Смертельный номер / Death Defying Acts
• Ханна. Совершенное оружие / Hanna
• Ханна. Совершенное оружие / Hanna

Эрик Бана
• Звездный путь / Star Trek (2009)
• Мэри и Макс / Mary and Max
• Приколисты / Funny People
• Троя / Troy
• Уцелевший / Lone Survivor
• Ханна. Совершенное оружие / Hanna
• Ханна. Совершенное оружие / Hanna
• Черный дрозд Deadfall

Кейт Бланшетт
• Властелин колец: Братва и кольцо [Гоблин]
• Властелин колец: Две крепости / Lord of the Rings: The Two Towers, The
• Дар / Gift, The
• Елизавета / Elizabeth
• Загадочная история Бенджамина Баттона / Curious Case of Benjamin Button, The
• Последний рейд/Missing, The
• Рай / Heaven
• Робин Гуд / Robin Hood
• Робин Гуд / Robin Hood
• Робин Гуд / Robin Hood
• Ханна. Совершенное оружие / Hanna
• Ханна. Совершенное оружие / Hanna
• Хоббит: Нежданное путешествие / The Hobbit: An Unexpected Journey
• Хоббит: Неожиданное путешествие / The Hobbit: An Unexpected Journey [Трейлер]

Джо Райт
• Анна Каренина / Anna Karenina
• Искупление / Atonement
• Солист / The Soloist
• Ханна. Совершенное оружие / Hanna
• Ханна. Совершенное оружие / Hanna

Год выпуска: 2011
Жанр: Боевик, Детектив, Триллер
Страна: США, Германия, Великобритания
Размер: 1401 МБ
Связанные персоналии: Сирша Ронан, Эрик Бана, Кейт Бланшетт, Джо Райт
Режиссёр: Джо Райт
Сценарий: Сет Локхед, Дэвид Фарр
Продюсер: Марти Адельштейн, Лесли Холлерэн, Скотт Немес
В ролях: Сирша Ронан, Эрик Бана, Кейт Бланшетт, Vicky Krieps, Пэрис Эрроусмит, Jon Macmilla, Тим Бекманн, Кристиан Малкольм, Джэми Берниш, Том Ходжкинс
Скачиваний: 138
Дата добавления: 20.05.2011
Кто добавил: Aizek

Описание фильма:

Качество: TS
Первод: одноголосый
Продолжительность: 111 мин.
Формат файла: .avi (AVI)
Размер файла: 1,37 GB

 
Тип потока: Видео
Кодек: MPEG-4 Visual
Кодек/Профиль: Advanced Simple@L5
Кодек/ID: XVID
Размеры изображения: 720 x 336 (2.2:1)
Частота кадров: 23.976 fps
Размер потока: 1.27 GiB (93%)
Битрейт: 1 757 Kbps
Библиотека кодирования: XviD 58
 
Тип потока: Звук #1
Кодек: MPEG Audio
Кодек/ID: 55
Частота дискретизации: 44.1 KHz
Каналов: 2 channels
Битрейт: 128 Kbps
Размер потока: 94.7 MiB (7%)



О филме:
Хрупкая на первый взгляд Ханна — идеальный солдат. Тайна ее рождения ревностно охраняется американским правительством. Ее миссия — отомстить бывшим работодателям отца, некогда секретного агента. Спецслужбы всего мира выходят на след девочки-убийцы. Охота начинается…

Скриншот фильма Скриншот фильма Скриншот фильма Скриншот фильма Скриншот фильма

Перейти к раздаче


   
Учтите, что скорость скачивания файлов напрямую зависит от наличия этих файлов на компьютерах пользователей! Чем распространённее этот файл, тем более высока скорость скачивания.

Знакомая личность?

Винг Рэймс
Винг Рэймс
(все фильмы)


Популярные фильмы:

Интерны
Интерны
(рейтинг: 71)


Район №9 / District 9
Район №9 / District 9
(рейтинг: 50)


Аватар / Avatar (HD)
Аватар / Avatar (HD)
(рейтинг: 36)


Аватар / Avatar
Аватар / Avatar
(рейтинг: 35)


Темный рыцарь / The Dark Knight (HD)
Темный рыцарь / The Dark Knight (HD)
(рейтинг: 33)



Популярные актеры:

Брюс Уиллис / Bruce Willis
Рейтинг: 87
Сэмюэл Л. Джексон
Рейтинг: 82
Роберт Де Ниро
Рейтинг: 77
Джерри Брукхаймер
Рейтинг: 77
Джонни Депп / Johnny Depp
Рейтинг: 77

В соответствии с ч.4 ГК РФ данный видеокаталог не содержит аудиовизуальные произведения (видеофайлы). Использование данного видеокаталог является бесплатной услугой и Администрация не несёт ответственность за качество и содержание каталога. Права на данные аудиовизуальные произведения принадлежат их законным правообладателям. Любое распространение и/или коммерческое использование без разрешения законных правообладателей запрещено. Все интересующиеся могут ознакомится с текстом ГК РФ Часть четвертая .
Страница генерировалась: 0.7 с. (запросов: 197) Ваш IP: ::1