Фильмотека magnetida.ru (видеокаталог.рф)

  EXMO affiliate program  
 
На главную  Форум  Трекер  Анфейкер  Хаб Атлантида

   3D  (26)
   CamRip, TS  (247)
   OVA  (4)
   Азиатские фильмы  (79)
   Альтернативный перевод, озвучка  (17)
   Анимация  (579)
   Анимэ  (73)
   Биография  (136)
   Боевик  (1651)
   Вестерн  (64)
   Видео для КПК  (9)
   Военный  (312)
   Детектив  (700)
   Детский  (170)
   Документальный  (373)
   Драма  (2441)
   Индийские фильмы  (32)
   Исторический  (142)
   Караоке  (1)
   Клип  (145)
   Комедия  (2331)
   Комикс  (27)
   Концерты  (83)
   Короткометражный  (67)
   Криминал  (1039)
   Мелодрама  (856)
   Мистика  (94)
   Музыкальное видео  (142)
   Научно-популярные  (22)
   Обучающее  (50)
   Отечественный  (608)
   Правильный Перевод Гоблина  (44)
   Приключения  (1099)
   Семейный  (601)
   Сериал  (1315)
   Сказка  (12)
   Спектакль  (26)
   Спорт  (202)
   ТВ-шоу  (211)
   Трейлер  (163)
   Триллер  (1819)
   Ужасы  (806)
   Фантастика  (996)
   Фэнтези  (598)
   Эротика  (58)
   Прочее  (53)

Всего фильмов






Поиск фильма:


Популярные сериалы:
 1. Интерны (71)
 2. Мгновения грядущего / Вспомни, что будет / Flash Forward [1й сезон] (32)
 3. Порно для всей семьи / PG Porn (29)
 4. Универ (3 сезон) (24)
 5. Универ (4 сезон) (24)
 6. Реальные пацаны (22)
 7. Остаться в живых / Lost (Сезон 6) (22)
 8. Теория Большого Взрыва / The Big Bang Theory [3 Cезон] (21)
 9. Ходячие мертвецы / The Walking Dead (1 сезон) (21)
 10. Разум Фримена / Freemans Mind (21)


Не интересуетесь?

Перейти к фильму
Планета обезьян / Planet of the Apes



Скоро в прокате:
Перейти к фильму
Падение Олимпа / Olympus Has Fallen

Перейти к фильму
Мрачные тени / Dark Shadows

Перейти к фильму
Хоббит: Неожиданное путешествие / The Hobbit: An Unexpected Journey [Трейлер]





Страшно красив / Beastly



Рейтинг фильма:
-0/+0

Перейти к фильму

Полная информация на IMDB
Информация на IMDB


Алекс Петтифер
• Время / In Time
• Время / In Time
• Оторва / Wild Child
• Супер Майк / Magic Mike
• Я – Четвертый / I Am Number Four
• Я – Четвертый / I Am Number Four

Мэри-Кейт Олсен
• Двое: Я и моя тень / It Takes Two
• Побеждая Лондон / Winning London
• Солнечные каникулы / Holiday in the Sun

Ванесса Энн Хадженс
• Бэндслэм / Bandslam
• Запрещенный прием / Sucker Punch
• Запрещенный прием / Sucker Punch
• Классный мюзикл / High School Musical
• Классный мюзикл: Выпускной / High School Musical 3: Senior Year
• Классный мюзикл: Каникулы / High School Musical 2
• Путешествие 2: Таинственный остров / Journey 2: The Mysterious Island

Лиза Гэй Хэмилтон
• Джеки Браун / Jackie Brown
• Солист / The Soloist

Год выпуска: 2011
Жанр: Фэнтези, Драма, Мелодрама
Страна: США
Размер: 2888 МБ
Связанные персоналии: Алекс Петтифер, Мэри-Кейт Олсен, Ванесса Энн Хадженс, Лиза Гэй Хэмилтон
Режиссёр: Даниел Барнз
Сценарий: Даниел Барнз, Алекс Флинн
Продюсер: Сьюзан Картсонис, Майкл Флинн, Роз Вайсберг
В ролях: Алекс Петтифер, Джастин Брэдли, Мэри-Кейт Олсен, Дакота Джонсон, Эрик Кнудсен, Ванесса Энн Хадженс, Карл Грабошас, Питер Краузе, Лиза Гэй Хэмилтон, Джонатан Дубски
Рейтинг Кинопоиск или IMDB: 6.626
Скачиваний: 98
Дата добавления: 14.08.2011
Кто добавил: Aizek

Описание фильма:

Качество: DVDSc
Перевод:Любительский (многоголосый)
Продолжительность:86 мин.
Формат файла: .avi (AVI)
Размер файла: 1,37 GB

Тип потока: Видео
Кодек: MPEG-4 Visual
Кодек/Профиль: Advanced Simple@L5
Кодек/ID: XVID
Размеры изображения: 720 x 400 (16:9)
Частота кадров: 29.970 fps
Размер потока: 1.13 GiB (83%)
Битрейт: 1 901 Kbps
Библиотека кодирования: XviD 58
 
Тип потока: Звук #1
Кодек: AC-3
Кодек/ID: 2000
Частота дискретизации: 48.0 KHz
Каналов: 2 channels
Битрейт: 192 Kbps
Размер потока: 117 MiB (8%)


Информация о фильме:
Очередная интерпретация классической истории «Красавицы и чудовища», перемещающая зрителя в современный Манхэттен. В нём живёт изуродованный наложенным проклятьем юноша Кайл, который хочет найти любовь. Если он обретёт вторую половинку, его прежняя сказочная внешность снова вернётся к нему.




Скриншот фильма Скриншот фильма Скриншот фильма Скриншот фильма Скриншот фильма

Перейти к раздаче


   
Учтите, что скорость скачивания файлов напрямую зависит от наличия этих файлов на компьютерах пользователей! Чем распространённее этот файл, тем более высока скорость скачивания.

Знакомая личность?

Марк Хэмилл
Марк Хэмилл
(все фильмы)


Популярные фильмы:

Интерны
Интерны
(рейтинг: 71)


Район №9 / District 9
Район №9 / District 9
(рейтинг: 50)


Аватар / Avatar (HD)
Аватар / Avatar (HD)
(рейтинг: 36)


Аватар / Avatar
Аватар / Avatar
(рейтинг: 35)


Темный рыцарь / The Dark Knight (HD)
Темный рыцарь / The Dark Knight (HD)
(рейтинг: 33)



Популярные актеры:

Брюс Уиллис / Bruce Willis
Рейтинг: 87
Сэмюэл Л. Джексон
Рейтинг: 82
Джерри Брукхаймер
Рейтинг: 77
Джонни Депп / Johnny Depp
Рейтинг: 77
Роберт Де Ниро
Рейтинг: 77

В соответствии с ч.4 ГК РФ данный видеокаталог не содержит аудиовизуальные произведения (видеофайлы). Использование данного видеокаталог является бесплатной услугой и Администрация не несёт ответственность за качество и содержание каталога. Права на данные аудиовизуальные произведения принадлежат их законным правообладателям. Любое распространение и/или коммерческое использование без разрешения законных правообладателей запрещено. Все интересующиеся могут ознакомится с текстом ГК РФ Часть четвертая .
Страница генерировалась: 0.7 с. (запросов: 164) Ваш IP: ::1