Фильмотека magnetida.ru (видеокаталог.рф)

  EXMO affiliate program  
 
На главную  Форум  Трекер  Анфейкер  Хаб Атлантида

   3D  (26)
   CamRip, TS  (247)
   OVA  (4)
   Азиатские фильмы  (79)
   Альтернативный перевод, озвучка  (17)
   Анимация  (579)
   Анимэ  (73)
   Биография  (136)
   Боевик  (1651)
   Вестерн  (64)
   Видео для КПК  (9)
   Военный  (312)
   Детектив  (700)
   Детский  (170)
   Документальный  (373)
   Драма  (2441)
   Индийские фильмы  (32)
   Исторический  (142)
   Караоке  (1)
   Клип  (145)
   Комедия  (2331)
   Комикс  (27)
   Концерты  (83)
   Короткометражный  (67)
   Криминал  (1039)
   Мелодрама  (856)
   Мистика  (94)
   Музыкальное видео  (142)
   Научно-популярные  (22)
   Обучающее  (50)
   Отечественный  (608)
   Правильный Перевод Гоблина  (44)
   Приключения  (1099)
   Семейный  (601)
   Сериал  (1315)
   Сказка  (12)
   Спектакль  (26)
   Спорт  (202)
   ТВ-шоу  (211)
   Трейлер  (163)
   Триллер  (1819)
   Ужасы  (806)
   Фантастика  (996)
   Фэнтези  (598)
   Эротика  (58)
   Прочее  (53)

Всего фильмов






Поиск фильма:


Популярные сериалы:
 1. Интерны (71)
 2. Мгновения грядущего / Вспомни, что будет / Flash Forward [1й сезон] (32)
 3. Порно для всей семьи / PG Porn (29)
 4. Универ (3 сезон) (24)
 5. Универ (4 сезон) (24)
 6. Реальные пацаны (22)
 7. Остаться в живых / Lost (Сезон 6) (22)
 8. Теория Большого Взрыва / The Big Bang Theory [3 Cезон] (21)
 9. Ходячие мертвецы / The Walking Dead (1 сезон) (21)
 10. Разум Фримена / Freemans Mind (21)


Не интересуетесь?

Перейти к фильму (Error file format: .jpg)
СОБР



Скоро в прокате:
Перейти к фильму
Падение Олимпа / Olympus Has Fallen

Перейти к фильму
Мрачные тени / Dark Shadows

Перейти к фильму
Хоббит: Неожиданное путешествие / The Hobbit: An Unexpected Journey [Трейлер]





Книжный магазин Блэка / Black Books



Рейтинг фильма:
-0/+1

Перейти к фильму

Полная информация на IMDB
Информация на IMDB


Саймон Пегг / Simon Pegg
• Беги, толстяк, беги / Run Fatboy Run
• Звездный путь / Star Trek (2009)
• Зомби по имени Шон / Shaun of the Dead
• Как потерять друзей и заставить всех тебя ненавидеть / How to Lose Friends & Alienate People
• Ледниковый период 3: Эра динозавров 3D / Ice Age: Dawn of the Dinosaurs 3D
• Лига джентльменов: Апокалипсис / The League of Gentlemens Apocalypse
• Миссия невыполнима: Протокол Фантом
• Миссия невыполнима: Протокол Фантом / Mission: Impossible - Ghost Protocol
• Миссия невыполнима: Протокол Фантом / Mission: Impossible - Ghost Protocol
• Миссия невыполнима: Протокол Фантом / Mission: Impossible - Ghost Protocol
• Миссия: невыполнима 3 / Mission: Impossible III
• Ноги-руки за любовь / Burke and Hare
• Пол: Секретный материальчик / Paul
• Пол: Секретный материальчик / Paul
• Приключения Тинтина: Тайна Единорога / The Adventures of Tintin
• Приключения Тинтина: Тайна Единорога / The Adventures of Tintin
• Стартрек: Возмездие / Star Trek Into Darkness
• Стартрек: Возмездие / Star Trek Into Darkness
• Типа крутые легавые / Hot Fuzz

Ник Фрост / Nick Frost
• Белоснежка и охотник / Snow White аnd the Huntsman
• Зомби по имени Шон / Shaun of the Dead
• Ледниковый период 4: Континентальный дрейф / Ice Age: Continental Drift
• Оторва / Wild Child
• Пол: Секретный материальчик / Paul
• Пол: Секретный материальчик / Paul
• Приключения Тинтина: Тайна Единорога / The Adventures of Tintin
• Приключения Тинтина: Тайна Единорога / The Adventures of Tintin
• Типа крутые легавые / Hot Fuzz
• Чужие на районе / Attack the Block
• Чумовые боты / Kinky Boots

Билл Бэйли
• Как выйти замуж за миллиардера / Chalet Girl
• Моя ужасная няня 2 / Nanny McPhee and the Big Bang
• Моя ужасная няня 2 / Nanny McPhee Returns

Тэмсин Грег
• Опочтарение / Going Postal (1 сезон)

Год выпуска: 2000
Жанр: Сериал, Комедия
Страна: Великобритания
Размер: 4908 МБ
Связанные персоналии: Саймон Пегг / Simon Pegg, Ник Фрост / Nick Frost, Дилан Моран, Билл Бэйли, Тэмсин Грег
Режиссёр: Мартин Деннис, Грэхэм Лайнхэн, Ник Вуд
Сценарий: Дилан Моран, Кевин Сесил, Энди Райли,
Продюсер: Карен Бивер, William Burdett-Coutts, Найра Парк,
В ролях: Дилан Моран, Билл Бэйли, Тэмсин Грег, Саймон Пегг, Рози Дэй, Пол Бич, Дэйзи Кэмпбелл, Ник Фрост, Кит Аллен, Люси Дэвис
Скачиваний: 54
Дата добавления: 31.10.2012
Кто добавил: atlant_is

Описание фильма:

Качество: DVDRip
Видеокодек
Идентификатор : 0
Формат : MPEG-4 Visual
Профиль формата : Advanced Simple@L5
Параметр BVOP формата : 1
Параметр QPel формата : Нет
Параметр GMC формата : Без точки перехода
Параметр матрицы формата : Выборочная
Идентификатор кодека : XVID
Идентификатор кодека/Подсказка : XviD
Продолжительность : 22 м.
Битрейт : 1313 Кбит/сек
Ширина : 640 пикселей
Высота : 368 пикселей
Соотношение сторон : 1,739
Частота кадров : 25,000 кадров/сек
Цветовое пространство : YUV
Субдискретизация насыщенности : 4:2:0
Битовая глубина : 8 бит
Тип развёртки : Прогрессивная
Метод сжатия : С потерями
Бит/(Пиксели*Кадры) : 0.223
Размер потока : 210 Мбайт (87%)
Библиотека кодирования : XviD 1.0.0 (UTC 2004-05-09)

Аудио кодек:
Идентификатор : 1
Формат : AC-3
Формат/Информация : Audio Coding 3
Расширение режима : CM (complete main)
Параметр Endianness формата : Big
Идентификатор кодека : 2000
Продолжительность : 22 м.
Вид битрейта : Постоянный
Битрейт : 192 Кбит/сек
Каналы : 2 канала
Расположение каналов : Front: L R
Частота : 48,0 КГц
Битовая глубина : 16 бит
Метод сжатия : С потерями
Размер потока : 30,7 Мбайт (13%)
Выравнивание : Разделение по промежуткам
Продолжительность промежутка : 40 мс. (1,00 видеокадр)
Время предзагрузки промежутка : 500 мс.
Язык : English

Жанр: комедия,
Перевод: Русский, закадровый
Продолжительность: 22 мин.


Информация о фильме:
Black Books  это небольшой книжный магазин в Лондоне, чей хозяин, ирландец Бернард Блэк, вероятно один из наименее пригодных к этой работе людей: он совершенно не собирается ничего продавать, закрывает магазин в любое угодное ему время, постоянно пьянствует и издевается над посетителями. В этих нелёгких занятиях ему помогают неуклюжий ассистент Мэнни и старая знакомая Френ, работающая в магазине по соседству.



Скриншот фильма Скриншот фильма Скриншот фильма Скриншот фильма

Перейти к раздаче


   
Учтите, что скорость скачивания файлов напрямую зависит от наличия этих файлов на компьютерах пользователей! Чем распространённее этот файл, тем более высока скорость скачивания.

Знакомая личность?

Гаррик Дион
Гаррик Дион
(все фильмы)


Популярные фильмы:

Интерны
Интерны
(рейтинг: 71)


Район №9 / District 9
Район №9 / District 9
(рейтинг: 50)


Аватар / Avatar (HD)
Аватар / Avatar (HD)
(рейтинг: 36)


Аватар / Avatar
Аватар / Avatar
(рейтинг: 35)


Темный рыцарь / The Dark Knight (HD)
Темный рыцарь / The Dark Knight (HD)
(рейтинг: 33)



Популярные актеры:

Брюс Уиллис / Bruce Willis
Рейтинг: 87
Сэмюэл Л. Джексон
Рейтинг: 82
Джонни Депп / Johnny Depp
Рейтинг: 77
Роберт Де Ниро
Рейтинг: 77
Джерри Брукхаймер
Рейтинг: 77

В соответствии с ч.4 ГК РФ данный видеокаталог не содержит аудиовизуальные произведения (видеофайлы). Использование данного видеокаталог является бесплатной услугой и Администрация не несёт ответственность за качество и содержание каталога. Права на данные аудиовизуальные произведения принадлежат их законным правообладателям. Любое распространение и/или коммерческое использование без разрешения законных правообладателей запрещено. Все интересующиеся могут ознакомится с текстом ГК РФ Часть четвертая .
Страница генерировалась: 0.8 с. (запросов: 198) Ваш IP: 127.0.0.1